<?xml version="1.0" standalone="no"?>
<!DOCTYPE svg PUBLIC "-//W3C//DTD SVG 1.1//EN" "http://www.w3.org/Graphics/SVG/1.1/DTD/svg11.dtd" >
<svg xmlns="http://www.w3.org/2000/svg">
  <metadata>Created by iconfont</metadata>
  <defs>
  <font id="iconfont" horiz-adv-x="1024">
    <font-face
      font-family="iconfont"
      font-weight="400"
      font-stretch="normal"
      units-per-em="1024"
      ascent="896"
      descent="-128"
    />
      <missing-glyph />
      
      <glyph glyph-name="guaduandianhua" unicode="&#58912;" d="M710.186667 405.504c0 29.994667-24.32 54.314667-54.314667 54.314667H366.72c-29.994667 0-54.314667-24.32-54.314667-54.314667v-77.653333A148.650667 148.650667 0 0 0 163.754667 179.2h-6.485334a140.970667 140.970667 0 0 0-139.093333 117.802667 211.498667 211.498667 0 0 0 176.896 243.882666l42.922667 6.485334a1917.354667 1917.354667 0 0 0 613.802666-6.229334 191.744 191.744 0 0 0 156.544-220.501333l-3.712-22.101333a142.848 142.848 0 0 0-140.885333-119.338667h-4.949333a148.650667 148.650667 0 0 0-148.608 148.650667v77.653333z"  horiz-adv-x="1024" />
      
      <glyph glyph-name="dianhua" unicode="&#58911;" d="M339.797333 488.8576a54.306133 54.306133 0 0 1 0-76.8l204.458667-204.458667a54.306133 54.306133 0 0 1 76.8 0l54.920533 54.920534c58.026667 58.026667 152.1664 58.026667 210.2272 0l4.573867-4.608a140.970667 140.970667 0 0 0 15.018667-181.623467 211.490133 211.490133 0 0 0-297.506134-47.377067l-34.952533 25.770667A1917.371733 1917.371733 0 0 0 143.735467 493.124267a191.726933 191.726933 0 0 0 45.226666 266.581333l18.2272 12.970667a142.848 142.848 0 0 0 184.046934-15.223467l3.4816-3.4816c58.026667-58.026667 58.026667-152.1664 0-210.193067l-54.920534-54.954666zM606.549333 482.645333a126.7712 126.7712 0 0 0 36.522667-103.082666 25.6 25.6 0 0 0-50.926933 5.393066 75.537067 75.537067 0 0 1-21.777067 61.508267 75.537067 75.537067 0 0 1-61.508267 21.742933 25.6 25.6 0 0 0-5.358933 50.926934 126.737067 126.737067 0 0 0 103.082667-36.4544zM734.8224 588.3904a190.941867 190.941867 0 0 0 54.954667-155.306667 25.6 25.6 0 0 0-50.926934 5.3248 139.741867 139.741867 0 0 1-40.277333 113.7664 139.741867 139.741867 0 0 1-113.732267 40.277334 25.6 25.6 0 0 0-5.358933 50.8928 190.941867 190.941867 0 0 0 155.306667-54.954667z"  horiz-adv-x="1024" />
      
      <glyph glyph-name="aite" unicode="&#58909;" d="M557.888 576c34.656 0 64.64-6.4 90.048-19.264 25.376-12.832 44.8-30.912 58.24-54.208 13.76-23.296 20.608-50.176 20.608-80.64 0-24.48-4.32-47.648-12.992-69.44-8.352-21.792-20.608-39.424-36.736-52.864-16.128-13.44-35.232-20.16-57.344-20.16-15.52 0-28.064 3.136-37.632 9.408a44.128 44.128 0 0 0-18.368 27.776c-8.64-11.648-19.84-20.896-33.6-27.776a99.52 99.52 0 0 0-43.456-9.856c-22.72 0-40.48 6.72-53.312 20.16-12.832 13.76-19.264 32.416-19.264 56 0 22.4 4.64 43.296 13.888 62.72 9.28 19.424 22.08 34.944 38.528 46.592a92.16 92.16 0 0 0 55.552 17.92c25.696 0 43.296-8.96 52.864-26.88l4.032 23.296h52.416l-21.056-120.96c-0.896-5.664-1.344-10.88-1.344-15.68 0-7.168 1.504-12.544 4.48-16.128 2.976-3.584 8.064-5.376 15.232-5.376 10.752 0 19.712 5.088 26.88 15.232 7.456 10.144 12.992 22.848 16.576 38.08 3.872 15.232 5.824 30.464 5.824 45.696 0 36.16-11.04 64.064-33.152 83.776-22.08 20-53.312 30.016-93.632 30.016-34.336 0-65.408-8.352-93.184-25.088a175.808 175.808 0 0 1-65.408-67.648c-15.52-28.384-23.296-60.032-23.296-94.976 0-37.024 10.88-65.568 32.704-85.568 22.08-20 53.312-30.016 93.632-30.016 28.96 0 54.496 5.216 76.608 15.68l8.96-41.216c-28.384-11.936-59.872-17.92-94.528-17.92-33.44 0-62.72 6.4-87.808 19.264a137.152 137.152 0 0 0-58.24 53.76c-13.76 23.296-20.608 50.336-20.608 81.088 0 43.904 10.144 83.776 30.464 119.616a224.96 224.96 0 0 0 85.12 84.672c36.448 20.608 77.216 30.912 122.304 30.912z m-51.52-250.432c10.752 0 20.608 3.136 29.568 9.408 8.96 6.272 16 14.624 21.056 25.088 5.376 10.464 8.064 21.664 8.064 33.6 0 12.544-3.424 22.72-10.304 30.464-6.88 7.776-16.416 11.648-28.672 11.648-11.04 0-20.768-3.424-29.12-10.304a66.816 66.816 0 0 1-19.712-25.984c-4.48-10.752-6.72-22.08-6.72-34.048 0-12.256 2.976-21.952 8.96-29.12 5.984-7.168 14.944-10.752 26.88-10.752z"  horiz-adv-x="1024" />
      
      <glyph glyph-name="xingbie" unicode="&#58910;" d="M640 537.6A128 128 0 1 1 512 409.6V332.8a204.8 204.8 0 1 0 0 409.6 204.8 204.8 0 0 0 0-409.6V409.6A128 128 0 0 1 640 537.6zM514.048 268.8a396.9536 396.9536 0 0 0 370.7392-255.0784 38.4 38.4 0 1 0-71.7312-27.4432 320.1536 320.1536 0 0 1-598.016 0 38.4 38.4 0 1 0-71.68 27.4432 396.9024 396.9024 0 0 0 370.688 255.0784z"  horiz-adv-x="1024" />
      
      <glyph glyph-name="a-Frame247" unicode="&#58908;" d="M170.666667 384a42.666667 42.666667 0 0 0 42.666666 42.666667h597.333334a42.666667 42.666667 0 1 0 0-85.333334H213.333333a42.666667 42.666667 0 0 0-42.666666 42.666667zM512 725.333333a42.666667 42.666667 0 0 0 42.666667-42.666666v-597.333334a42.666667 42.666667 0 1 0-85.333334 0V682.666667a42.666667 42.666667 0 0 0 42.666667 42.666666z"  horiz-adv-x="1024" />
      
      <glyph glyph-name="bianji" unicode="&#58907;" d="M224 192v384A96 96 0 0 0 320 672H512a32 32 0 0 0 0-64H320a32 32 0 0 1-32-32v-384c0-17.664 14.336-32 32-32h384a32 32 0 0 1 32 32V384a32 32 0 0 0 64 0v-192a96 96 0 0 0-96-96h-384a96 96 0 0 0-96 96zM745.386667 662.613333a32 32 0 1 0 45.226666-45.226666l-341.333333-341.333334a32 32 0 1 0-45.226667 45.226667l341.333334 341.333333z"  horiz-adv-x="1024" />
      
      <glyph glyph-name="zhankai1" unicode="&#58901;" d="M672 536a24 24 0 0 0 0-48H352a24 24 0 0 0 0 48h320zM672 408a24 24 0 0 0 0-48H352a24 24 0 0 0 0 48h320zM367.04 304.96a24 24 0 0 0 39.52-24.96H672a24 24 0 0 0 0-48h-265.44a23.936 23.936 0 0 0-39.52-24.96L318.08 256l48.96 48.96z"  horiz-adv-x="1024" />
      
      <glyph glyph-name="a-Frame195" unicode="&#58902;" d="M338.752 685.248a64 64 0 0 0 90.496 0l256-256a64 64 0 0 0 0-90.496l-256-256a64 64 0 1 0-90.496 90.496L549.504 384 338.752 594.752a64 64 0 0 0 0 90.496z"  horiz-adv-x="1024" />
      
      <glyph glyph-name="zhankai-1" unicode="&#58903;" d="M672 536a24 24 0 0 0 0-48H352a24 24 0 0 0 0 48h320zM672 408a24 24 0 0 0 0-48H352a24 24 0 0 0 0 48h320zM656.96 304.96a24 24 0 0 1-39.52-24.96H352a24 24 0 0 1 0-48h265.44a23.936 23.936 0 0 1 39.52-24.96L705.92 256l-48.96 48.96z"  horiz-adv-x="1024" />
      
      <glyph glyph-name="shengcheng" unicode="&#58904;" d="M506.837333 693.333333c125.44 0 232.064-80.213333 271.573334-192a32 32 0 1 0-60.330667-21.333333 224 224 0 0 1-431.914667-36.266667l87.424 14.506667a32 32 0 0 0 10.496-63.146667l-165.248-27.562666V405.333333a288 288 0 0 0 288 288zM517.162667 74.666667a288.085333 288.085333 0 0 0-271.573334 192 32 32 0 1 0 60.330667 21.333333 224.085333 224.085333 0 0 1 431.914667 36.266667l-87.424-14.506667a32 32 0 0 0-10.496 63.146667l165.248 27.562666v-37.802666a288 288 0 0 0-288-288z"  horiz-adv-x="1024" />
      
      <glyph glyph-name="fuzhi" unicode="&#58905;" d="M597.333333 277.333333V213.333333H298.666667v64h298.666666z m21.333334 21.333334V597.333333a21.333333 21.333333 0 0 1-21.333334 21.333334H298.666667a21.333333 21.333333 0 0 1-21.333334-21.333334v-298.666666a21.333333 21.333333 0 0 1 21.333334-21.333334V213.333333a85.333333 85.333333 0 0 0-85.333334 85.333334V597.333333a85.333333 85.333333 0 0 0 85.333334 85.333334h298.666666a85.333333 85.333333 0 0 0 85.333334-85.333334v-298.666666a85.333333 85.333333 0 0 0-85.333334-85.333334v64a21.333333 21.333333 0 0 1 21.333334 21.333334zM736 256v213.333333a32 32 0 0 0 64 0v-213.333333A160 160 0 0 0 640 96h-213.333333a32 32 0 0 0 0 64h213.333333A96 96 0 0 1 736 256z"  horiz-adv-x="1024" />
      
      <glyph glyph-name="a-Frame194" unicode="&#58906;" d="M685.248 685.248a64 64 0 0 1-90.496 0l-256-256a64 64 0 0 1 0-90.496l256-256a64 64 0 1 1 90.496 90.496L474.496 384l210.752 210.752a64 64 0 0 1 0 90.496z"  horiz-adv-x="1024" />
      
      <glyph glyph-name="gender-female-line" unicode="&#58900;" d="M725.333333 554.666667a213.333333 213.333333 0 1 1-213.333333-213.333334v-128a341.333333 341.333333 0 1 0 0 682.666667 341.333333 341.333333 0 0 0 0-682.666667v128a213.333333 213.333333 0 0 1 213.333333 213.333334zM469.333333-85.333333v341.333333a42.666667 42.666667 0 1 0 85.333334 0v-341.333333a42.666667 42.666667 0 1 0-85.333334 0zM299.093333 128.426667l426.282667-0.426667a42.666667 42.666667 0 1 0-0.085333-85.333333l-426.24 0.426666a42.666667 42.666667 0 1 0 0.085333 85.333334z"  horiz-adv-x="1024" />
      
      <glyph glyph-name="gender-male-line" unicode="&#58899;" d="M493.866667-119.381333C241.493333-175.104 16.853333 49.493333 72.576 301.909333 128.256 554.24 426.154667 663.722667 631.68 506.88l166.954667 166.954667h-169.173334a47.061333 47.061333 0 0 0 0 94.122666H960v-330.538666a47.061333 47.061333 0 1 0-94.122667 0V606.72l-166.954666-166.954667c156.757333-205.482667 47.36-503.381333-205.056-559.104z m182.613333 345.088A258.432 258.432 0 0 1 417.706667 484.522667c-143.232 0-259.925333-115.541333-259.925334-258.816a260.352 260.352 0 0 1 259.925334-259.925334c143.274667 0 258.858667 116.650667 258.858666 259.925334z"  horiz-adv-x="1024" />
      
      <glyph glyph-name="shuaxin" unicode="&#58898;" d="M512 768a384 384 0 0 0 42.666667-765.525333v-78.976a21.333333 21.333333 0 0 0-36.437334-15.104l-119.125333 119.168a21.333333 21.333333 0 0 0 0 30.165333l119.168 119.168a21.333333 21.333333 0 0 0 36.394667-15.061333v-73.386667A298.666667 298.666667 0 1 1 213.333333 384a42.666667 42.666667 0 1 0-85.333333 0 384 384 0 0 0 384 384z"  horiz-adv-x="1024" />
      
      <glyph glyph-name="jiantou" unicode="&#58896;" d="M545.0752 606.9248a25.6 25.6 0 0 0 36.1984 0L804.1984 384l-222.9248-222.9248a25.6 25.6 0 0 0-36.1984 36.2496l161.1264 161.0752H204.8a25.6 25.6 0 0 0 0 51.2h501.4016l-161.0752 161.1264a25.6 25.6 0 0 0 0 36.1984z"  horiz-adv-x="1024" />
      
      <glyph glyph-name="guanbi" unicode="&#58897;" d="M801.5872 166.7584a51.2 51.2 0 0 0-72.3968-72.3968l-506.88 506.88a51.2 51.2 0 1 0 72.448 72.3968l506.88-506.88zM294.8096 94.3616a51.2 51.2 0 0 0-72.448 72.3968l506.88 506.88a51.2 51.2 0 0 0 72.3968-72.3968l-506.88-506.88z"  horiz-adv-x="1024" />
      
      <glyph glyph-name="sousuo" unicode="&#58893;" d="M768 426.666667a298.666667 298.666667 0 1 1-298.666667-298.666667v-85.333333a384 384 0 1 0 0 768 384 384 0 0 0 0-768v85.333333a298.666667 298.666667 0 0 1 298.666667 298.666667zM695.168 200.832a42.666667 42.666667 0 0 0 60.330667 0l128-128a42.666667 42.666667 0 1 0-60.330667-60.330667l-128 128a42.666667 42.666667 0 0 0 0 60.330667z"  horiz-adv-x="1024" />
      
      <glyph glyph-name="zhedie" unicode="&#58894;" d="M320 279.424a10.666667 10.666667 0 0 0 16.32 9.045333l54.528-34.090666a10.666667 10.666667 0 0 0 0-18.090667l-54.528-34.090667a10.666667 10.666667 0 0 0-16.32 9.045334v68.181333zM682.666667 256a21.333333 21.333333 0 1 0 0-42.666667H469.333333a21.333333 21.333333 0 1 0 0 42.666667h213.333334z m0 149.333333a21.333333 21.333333 0 1 0 0-42.666666H341.333333a21.333333 21.333333 0 1 0 0 42.666666h341.333334z m0 149.333334a21.333333 21.333333 0 1 0 0-42.666667H341.333333a21.333333 21.333333 0 1 0 0 42.666667h341.333334z"  horiz-adv-x="1024" />
      
      <glyph glyph-name="zhankai" unicode="&#58895;" d="M687.68 288.448a10.666667 10.666667 0 0 0 16.32-9.024v-68.181333a10.666667 10.666667 0 0 0-16.32-9.045334l-54.528 34.090667a10.666667 10.666667 0 0 0 0 18.090667l54.528 34.090666zM554.666667 256a21.333333 21.333333 0 1 0 0-42.666667H341.333333a21.333333 21.333333 0 1 0 0 42.666667h213.333334z m128 149.333333a21.333333 21.333333 0 1 0 0-42.666666H341.333333a21.333333 21.333333 0 1 0 0 42.666666h341.333334z m0 149.333334a21.333333 21.333333 0 1 0 0-42.666667H341.333333a21.333333 21.333333 0 1 0 0 42.666667h341.333334z"  horiz-adv-x="1024" />
      
    </font>
</defs>
</svg>
